July 26, 2020 | Views: 2537

The Coma (2019) BluRay 1080p 5 1 Ch Sexmeup 2 5 GB |…

image

image

Είδος Ταινίας: Action, Adventure, Fantasy  
Πρεμιέρα: 30 January 2020 (Russia)
Σκηνοθέτης: Nikita Argunov
Σενάριο: Nikita Argunov, Timofei Dekin
Ηθοποιοί: Rinal Mukhametov, Lyubov Aksyonova, Anton Pampushnyy
Υπότιτλοι: Ελληνικοί Ενσωματωμένοι & Σε Ξεχωριστό Αρχείο
Γνωστό και ως: Koma
Μετάφραση: ThomasL
Διάρκεια: 111'
Καταλληλότητα:
image

-encoder: .:Sexmeup:.

Πηγή: DUAL.COMPLETE.BLURAY-QUANTiCA

image

Υπόθεση:

Μετά από ένα κολοσσιαίο και μυστηριώδες ατύχημα, ένας νεαρός ταλαντούχος αρχιτέκτονας ξαναβρίσκει τις αισθήσεις του σε έναν πολύ περίεργο κόσμο που μοιάζει με την πραγματικότητα. Αυτός ο κόσμος βασίζεται στις μνήμες εκείνων που ζουν σε αυτόν, άνθρωποι που βρίσκονται σε βαθύ κώμα.

image

https://www.imdb.com/title/tt6087226/

image

image

image

https://www.youtube.com/watch?v=5WohqZM2m8U

TEXNIKA XAΡΑΚΤΗΡΙΣΤΙΚΑ

General
Unique ID                                : 119656674689693435243966934359783656907 (0x5A05098B6216FA7B4DDF716C46D24DCB)
Complete name                            : C:UsersAdministratorDownloadsthecoma1080micsexmeupthecoma1080micsexmeup.mkv
Format                                   : Matroska
Format version                           : Version 4
File size                                : 2.52 GiB
Duration                                 : 1 h 50 min
Overall bit rate                         : 3 249 kb/s
Movie name                               : .:Sexmeup:. Quality Uploads - encodes -
Encoded date                             : UTC 2020-07-26 18:27:03
Writing application                      : mkvmerge v37.0.0 ('Leave It') 64-bit
Writing library                          : libebml v1.3.9 + libmatroska v1.5.2

Video
ID                                       : 1
Format                                   : AVC
Format/Info                              : Advanced Video Codec
Format profile                           : Main@L4
Format settings                          : CABAC / 4 Ref Frames
Format settings, CABAC                   : Yes
Format settings, Reference frames        : 4 frames
Codec ID                                 : V_MPEG4/ISO/AVC
Duration                                 : 1 h 50 min
Bit rate                                 : 1 997 kb/s
Width                                    : 1 920 pixels
Height                                   : 804 pixels
Display aspect ratio                     : 2.40:1
Frame rate mode                          : Constant
Frame rate                               : 24.000 FPS
Color space                              : YUV
Chroma subsampling                       : 4:2:0
Bit depth                                : 8 bits
Scan type                                : Progressive
Bits/(Pixel*Frame)                       : 0.054
Stream size                              : 1.52 GiB (61%)
Writing library                          : x264 core 157 r2935 545de2f
Encoding settings                        : cabac=1 / ref=1 / deblock=1:0:0 / analyse=0x1:0x111 / me=hex / subme=2 / psy=1 / psy_rd=1.00:0.00 / mixed_ref=0 / me_range=16 / chroma_me=1 / trellis=0 / 8x8dct=0 / cqm=0 / deadzone=21,11 / fast_pskip=1 / chroma_qp_offset=0 / threads=24 / lookahead_threads=6 / sliced_threads=0 / nr=0 / decimate=1 / interlaced=0 / bluray_compat=0 / constrained_intra=0 / bframes=3 / b_pyramid=2 / b_adapt=1 / b_bias=0 / direct=1 / weightb=1 / open_gop=0 / weightp=1 / keyint=240 / keyint_min=24 / scenecut=40 / intra_refresh=0 / rc_lookahead=10 / rc=abr / mbtree=1 / bitrate=1997 / ratetol=1.0 / qcomp=0.60 / qpmin=0 / qpmax=69 / qpstep=4 / vbv_maxrate=20000 / vbv_bufsize=25000 / nal_hrd=none / filler=0 / ip_ratio=1.40 / aq=1:1.00
Default                                  : Yes
Forced                                   : No
Color range                              : Limited
Color primaries                          : BT.709
Transfer characteristics                 : BT.709
Matrix coefficients                      : BT.709

Audio #1
ID                                       : 2
Format                                   : AC-3
Format/Info                              : Audio Coding 3
Commercial name                          : Dolby Digital
Codec ID                                 : A_AC3
Duration                                 : 1 h 50 min
Bit rate mode                            : Constant
Bit rate                                 : 640 kb/s
Channel(s)                               : 6 channels
Channel layout                           : L R C LFE Ls Rs
Sampling rate                            : 48.0 kHz
Frame rate                               : 31.250 FPS (1536 SPF)
Compression mode                         : Lossy
Delay relative to video                  : -5 ms
Stream size                              : 508 MiB (20%)
Title                                    : Surround
Language                                 : Russian
Service kind                             : Complete Main
Default                                  : Yes
Forced                                   : No

Audio #2
ID                                       : 3
Format                                   : AC-3
Format/Info                              : Audio Coding 3
Commercial name                          : Dolby Digital
Codec ID                                 : A_AC3
Duration                                 : 1 h 50 min
Bit rate mode                            : Constant
Bit rate                                 : 640 kb/s
Channel(s)                               : 6 channels
Channel layout                           : L R C LFE Ls Rs
Sampling rate                            : 48.0 kHz
Frame rate                               : 31.250 FPS (1536 SPF)
Compression mode                         : Lossy
Delay relative to video                  : -5 ms
Stream size                              : 508 MiB (20%)
Title                                    : Surround
Language                                 : German
Service kind                             : Complete Main
Default                                  : No
Forced                                   : No

Text
ID                                       : 4
Format                                   : UTF-8
Codec ID                                 : S_TEXT/UTF8
Codec ID/Info                            : UTF-8 Plain Text
Duration                                 : 1 h 47 min
Bit rate                                 : 75 b/s
Count of elements                        : 1016
Stream size                              : 59.0 KiB (0%)
Title                                    : Greek
Default                                  : Yes
Forced                                   : No

image
image
ΑΝ ΘΕΛΕΤΕ ΝΑ ΣΤΗΡΙΞΕΤΕ ΤΗΝ ΔΟΥΛΕΙΑ ΜΟΥ
ΚΑΝΤΕ ΕΥΚΟΛΑ ΚΑΙ ΓΡΗΓΟΡΑ ΛΟΓΑΡΙΑΣΜΟ ΣΤΟ EASYBYTEZ KAI KATEΒΑΣΤΕ ΣΑΝ PREMIUM AΠO 20HOST!!
http://www.easybytez.com/free2771.html


http://www.easybytez.com/ur5ax9oat9fx
http://www.easybytez.com/9vf6cltgkwsk
http://www.easybytez.com/ii5xg6lrjvwj
http://www.easybytez.com/xrvmq1jfawsl
http://www.easybytez.com/t9915fgenpe7
http://www.easybytez.com/cs7e450zr8xh
http://www.easybytez.com/mq344p0sb02p
http://www.easybytez.com/97a4zgo40jgd
http://www.easybytez.com/czfd4hts030p
http://www.easybytez.com/udlaezplopna
http://www.easybytez.com/l7vsqc8ctab2
http://www.easybytez.com/uike865x886r
http://www.easybytez.com/rmjospqpza3s
http://www.easybytez.com/i64wevm1uts9
http://www.easybytez.com/torzfwx8m0zu
http://www.easybytez.com/28r4c99uo8ki
http://www.easybytez.com/7w3d8wjgrzpc
http://www.easybytez.com/ek4go6cvdoe8
http://www.easybytez.com/ssc3tb9hgrpq
http://www.easybytez.com/t26xy633iryg
http://www.easybytez.com/gu6dv2skqqe9
http://www.easybytez.com/c7n3x5j22m1j
http://www.easybytez.com/dsddwcyhncym
http://www.easybytez.com/jipdow0ljj0k
http://www.easybytez.com/s323c02wc373
http://www.easybytez.com/jaks72gxu9zy
http://www.easybytez.com/0cvwl0oycc7q
http://www.easybytez.com/kj1cyq84fyx8
http://www.easybytez.com/ho3aaeteoxez

image

https://rapidgator.net/file/c016953c80ca7ff5f785ed99b16c62df
https://rapidgator.net/file/fb5ee695a9414d6c20b98a6f1a9d0014
https://rapidgator.net/file/68ad241deada8b99a564c135b8c5c01f
https://rapidgator.net/file/ff2311f609121646cf27dad6f888b2f1
https://rapidgator.net/file/d0c4acb0653b3a11001386470f1c03b4
https://rapidgator.net/file/958bf947ad3c76450187e573a65b6046
https://rapidgator.net/file/1606dac7a02fcde04b2f6c018a10c9e5
https://rapidgator.net/file/dc9801bb20377cb527af0414436ec71d
https://rapidgator.net/file/d020fa5e3919ca272309539392fc7967
https://rapidgator.net/file/3c9834a35e3aabb9445cb43be9e70cfb
https://rapidgator.net/file/ce39187b648405e0d6028a9b7e0d3357
https://rapidgator.net/file/cec2434304d6c568a29c7ed1b3014c23
https://rapidgator.net/file/7423dc9ecf69ab4334c391b2700aaa1e
https://rapidgator.net/file/509bb8bde71007443b25809844265dbc
https://rapidgator.net/file/d83f789ac23b0fb195467a1ba8e56048
https://rapidgator.net/file/232f4818c7644e76893a2ad2addee06d
https://rapidgator.net/file/ba3d28ae7c2b7067b243401eab9dab6b
https://rapidgator.net/file/720e047ad73c113a85920a2affbfee12
https://rapidgator.net/file/0f490468a1a4c7f0dec77aa9f3fb6a7b
https://rapidgator.net/file/a0f08e9e979d08c7588ad871ade839ad
https://rapidgator.net/file/b7999e74c0de6636ad60fbec43abf0e6
https://rapidgator.net/file/65274fe8d8bb528ec00dca5c1de26765
https://rapidgator.net/file/b7c25522d5ae17fe90b59773c07df96e
https://rapidgator.net/file/bdf255dc1b23a7726d3eee9220eec4de
https://rapidgator.net/file/ee7a57fc1dbae06bd36de1c01f5d738c
https://rapidgator.net/file/e6d576c6dbab40f4003ed3d0dfaed2c9
https://rapidgator.net/file/07f056c774b1570cd648ac4eda3087df
https://rapidgator.net/file/dd759fea08d79d14f261f397fae82364
https://rapidgator.net/file/1efff8694a449f48a7d1091813b1ebbe

Κωδικός Αποσυμπίεσης: Sexmeup

image