September 04, 2020 | Views: 28

In Fabric (2018) BluRay 720p 5 1 Ch Sexmeup 1 9 GB |…

image

image

Είδος Ταινίας: Comedy, Horror
Πρεμιέρα: 28 June 2019 (UK)
Σκηνοθέτης: Peter Strickland
Σενάριο: Peter Strickland
Ηθοποιοί: Gwendoline Christie, Sidse Babett Knudsen, Marianne Jean-Baptiste
Υπότιτλοι: Ελληνικοί Ενσωματωμένοι & Σε Ξεχωριστό Αρχείο
Ελληνικός Τίτλος: Το Στοιχειωμένο Ύφασμα
Μετάφραση: Γιώργος Siogo
Διάρκεια: 118'
Καταλληλότητα: image


-encoder: .:Sexmeup:.

Πηγή: 1080p.BluRay.X264-AMIABLE

image

Υπόθεση:

Σε ένα πολυσύχναστο κατάστημα ρούχων, η 50χρονη Σίλα πείθεται να αγοράσει το κόκκινο φόρεμα που η εκκεντρική πωλήτρια επιμένει να της παινεύει. Μόνο που το ρούχο αποδεικνύεται καταραμένο και πλέον όσο και αν πασχίζει να απαλλαγεί από αυτό, οι φρικιαστικές συνέπειες της μοιραίας αγοράς του την καταδιώκουν, όπως και όποιον άλλο το βρει στο διάβα του.

image

https://www.imdb.com/title/tt7464188/

image

image

image

https://www.youtube.com/watch?v=biHUTtV4K40

TEXNIKA XAΡΑΚΤΗΡΙΣΤΙΚΑ

General
Unique ID                                : 115248400282585147103857313784375729097 (0x56B408D5F4814F4CB85A073FE2DEDBC9)
Complete name                            : C:UsersAdministratorDownloadsinfabric720micsexmeupinfabric720micsexmeup.mkv
Format                                   : Matroska
Format version                           : Version 4
File size                                : 1.95 GiB
Duration                                 : 1 h 58 min
Overall bit rate                         : 2 348 kb/s
Movie name                               : .:Sexmeup:. Quality Uploads - encodes -
Encoded date                             : UTC 2020-09-04 12:07:32
Writing application                      : mkvmerge v37.0.0 ('Leave It') 64-bit
Writing library                          : libebml v1.3.9 + libmatroska v1.5.2

Video
ID                                       : 2
Format                                   : AVC
Format/Info                              : Advanced Video Codec
Format profile                           : Main@L4
Format settings                          : CABAC / 4 Ref Frames
Format settings, CABAC                   : Yes
Format settings, Reference frames        : 4 frames
Codec ID                                 : V_MPEG4/ISO/AVC
Duration                                 : 1 h 58 min
Bit rate                                 : 2 130 kb/s
Width                                    : 1 280 pixels
Height                                   : 536 pixels
Display aspect ratio                     : 2.40:1
Frame rate mode                          : Constant
Frame rate                               : 24.000 FPS
Color space                              : YUV
Chroma subsampling                       : 4:2:0
Bit depth                                : 8 bits
Scan type                                : Progressive
Bits/(Pixel*Frame)                       : 0.129
Stream size                              : 1.76 GiB (90%)
Writing library                          : x264 core 157 r2935 545de2f
Encoding settings                        : cabac=1 / ref=1 / deblock=1:0:0 / analyse=0x1:0x111 / me=hex / subme=2 / psy=1 / psy_rd=1.00:0.00 / mixed_ref=0 / me_range=16 / chroma_me=1 / trellis=0 / 8x8dct=0 / cqm=0 / deadzone=21,11 / fast_pskip=1 / chroma_qp_offset=0 / threads=17 / lookahead_threads=4 / sliced_threads=0 / nr=0 / decimate=1 / interlaced=0 / bluray_compat=0 / constrained_intra=0 / bframes=3 / b_pyramid=2 / b_adapt=1 / b_bias=0 / direct=1 / weightb=1 / open_gop=0 / weightp=1 / keyint=240 / keyint_min=24 / scenecut=40 / intra_refresh=0 / rc_lookahead=10 / rc=abr / mbtree=1 / bitrate=2130 / ratetol=1.0 / qcomp=0.60 / qpmin=0 / qpmax=69 / qpstep=4 / vbv_maxrate=20000 / vbv_bufsize=25000 / nal_hrd=none / filler=0 / ip_ratio=1.40 / aq=1:1.00
Default                                  : Yes
Forced                                   : No
Color range                              : Limited
Color primaries                          : BT.709
Transfer characteristics                 : BT.709
Matrix coefficients                      : BT.709

Audio
ID                                       : 3
Format                                   : AC-3
Format/Info                              : Audio Coding 3
Commercial name                          : Dolby Digital
Codec ID                                 : A_AC3
Duration                                 : 1 h 58 min
Bit rate mode                            : Constant
Bit rate                                 : 224 kb/s
Channel(s)                               : 6 channels
Channel layout                           : L R C LFE Ls Rs
Sampling rate                            : 48.0 kHz
Frame rate                               : 31.250 FPS (1536 SPF)
Compression mode                         : Lossy
Delay relative to video                  : -10 ms
Stream size                              : 190 MiB (10%)
Title                                    : Surround
Language                                 : English
Service kind                             : Complete Main
Default                                  : Yes
Forced                                   : No

Text
ID                                       : 1
Format                                   : UTF-8
Codec ID                                 : S_TEXT/UTF8
Codec ID/Info                            : UTF-8 Plain Text
Duration                                 : 1 h 50 min
Bit rate                                 : 84 b/s
Count of elements                        : 1046
Stream size                              : 68.7 KiB (0%)
Title                                    : Greek
Default                                  : Yes
Forced                                   : No


image
image

ΑΝ ΘΕΛΕΤΕ ΝΑ ΣΤΗΡΙΞΕΤΕ ΤΗΝ ΔΟΥΛΕΙΑ ΜΟΥ
ΚΑΝΤΕ ΕΥΚΟΛΑ ΚΑΙ ΓΡΗΓΟΡΑ ΛΟΓΑΡΙΑΣΜΟ ΣΤΟ EASYBYTEZ KAI KATEΒΑΣΤΕ ΣΑΝ PREMIUM AΠO 20HOST!!
http://www.easybytez.com/free2771.html


http://www.easybytez.com/8149m0ve89yc
http://www.easybytez.com/kn9nby53b9n1
http://www.easybytez.com/xsncgifsihoa
http://www.easybytez.com/uygammk1zhpu
http://www.easybytez.com/kv4yny9vlig6
http://www.easybytez.com/32zlabnylvki
http://www.easybytez.com/lkusu1ir9fzz
http://www.easybytez.com/rtm0130kw2du
http://www.easybytez.com/0c1teyieux9z
http://www.easybytez.com/jwf6cm1p8y5s
http://www.easybytez.com/3ipmeh1p05d9
http://www.easybytez.com/le0jdu046rqm
http://www.easybytez.com/dvjw54etyk9b
http://www.easybytez.com/qeor12xq7shh
http://www.easybytez.com/0eagecncp8tf
http://www.easybytez.com/8i00vrr42vgh
http://www.easybytez.com/b0ryfwb4z5y3
http://www.easybytez.com/uc11zpc0d11b
http://www.easybytez.com/05f1kn39mzqy
http://www.easybytez.com/7d8ga8kd75wp

image

https://rapidgator.net/file/5d4ffccb923b99912d6cf08e2b8e09a6
https://rapidgator.net/file/cc532d8e9eaa7723311920c6fc857949
https://rapidgator.net/file/158baa611c183e40b02baa2c0d38a162
https://rapidgator.net/file/3d2b7766fc3e9d5c539b6cda9c86dfb5
https://rapidgator.net/file/9cfa02dc969adbea331c3447bc836837
https://rapidgator.net/file/d0e060f19e3838c727f4ad7346657d99
https://rapidgator.net/file/bda104d822318b4c800bde6e4c180f93
https://rapidgator.net/file/9419773b4d3f425fa83347f6b1e8309b
https://rapidgator.net/file/21790a621fcf61cce507a8ff7dd4d309
https://rapidgator.net/file/2f358599dd961980fb52620cbb33a873
https://rapidgator.net/file/d12dfc1f79c55dd05f75c399a9eb8491
https://rapidgator.net/file/aaf9d601c127e0dc79aff498a8ecdc80
https://rapidgator.net/file/f5c98590e29f44bc5a0f7a7490a58a33
https://rapidgator.net/file/686a0dd6d4453fa93af3fc752833854d
https://rapidgator.net/file/0c07df8863f140e334d89b36c240c7be
https://rapidgator.net/file/6aa85b0e3206ead733dba2e875e4e59f
https://rapidgator.net/file/25926e107121b5cf42598fc9e44f453b
https://rapidgator.net/file/8fb920cb244b74285884073d37e2b604
https://rapidgator.net/file/243bdffff649845c6e132c9153740d79
https://rapidgator.net/file/45fb6aeb683a73c63a9d90e972650fb0

Κωδικός Αποσυμπίεσης:Sexmeup

image