September 22, 2020 | Views: 68

Never A Dull Moment (1968) WEB DL 1080p Sexmeup 2 5 GB |…

image

image

Είδος Ταινίας: Family, Comedy, Crime
Πρεμιέρα: 26 June 1968 (USA)
Σκηνοθέτης: Jerry Paris
Σενάριο: John Godey (book), AJ Carothers
Ηθοποιοί: Dick Van Dyke, Edward G. Robinson, Dorothy Provine
Υπότιτλοι: Ελληνικοί Ενσωματωμένοι & Σε Ξεχωριστό Αρχείο
Μετάφραση: corto64
Διάρκεια: 99'
Καταλληλότητα:
image

-encoder: .:Sexmeup:.

Πηγή: 1080p.AMZN.WEB-DL.DDP2.0.x264-ABM

image

Υπόθεση:

Η βίλλα με τους τρελούς! Ένας φιλόδοξος ηθοποιός με μέτρια πορεία στα τηλεοπτικά πλατό και το θεατρικό σανίδι, βρίσκεται χωρίς να το καταλάβει στο άντρο μιας συμμορίας, για να παίξει τον σημαντικότερο ρόλο όλων στην επικείμενη ληστεία του μουσείου, αυτόν του επαγγελματία δολοφόνου! Μπρος γκρεμός και πίσω ρέμα, αφού σε κάθε του προσπάθεια να ξεφύγει μπλέκει όλο και περισσότερο, ενώ ταυτόχρονα γνωρίζει τον έρωτα της ζωής του. Κι όλα αυτά τη στιγμή που διαρκώς  από απίστευτες συγκυρίες και καπρίτσια της τύχης επιβεβαιώνει την φήμη του ως «σιωπηλός δολοφόνος», κόντρα σε κάθε προγνωστικό! Καλό κουράγιο σε όποιους αντέξουν να δουν το φιλμ ως το τέλος και, φροντίστε να έχετε καλές σχέσεις με τους γείτονες σας, για να γλυτώσετε τα περί διατάραξης της κοινής ησυχίας!

image

https://www.imdb.com/title/tt0063341/

image

image

image

https://www.youtube.com/watch?v=A1-fp3sKC74&ab_channel=YouTubeMovies

TEXNIKA XAΡΑΚΤΗΡΙΣΤΙΚΑ

General
Unique ID                                : 185492442441292426456052220177494981013 (0x8B8C8B80E4F17F5E8BCC7971F6123995)
Complete name                            : C:UsersAdministratorDownloadsneveradullmoment1080websexmeupneveradullmoment1080websexmeup.mkv
Format                                   : Matroska
Format version                           : Version 4
File size                                : 2.54 GiB
Duration                                 : 1 h 40 min
Overall bit rate                         : 3 633 kb/s
Movie name                               : .:Sexmeup:. Quality Uploads - encodes -
Encoded date                             : UTC 2020-09-22 06:13:21
Writing application                      : mkvmerge v37.0.0 ('Leave It') 64-bit
Writing library                          : libebml v1.3.9 + libmatroska v1.5.2

Video
ID                                       : 2
Format                                   : AVC
Format/Info                              : Advanced Video Codec
Format profile                           : Main@L4
Format settings                          : CABAC / 4 Ref Frames
Format settings, CABAC                   : Yes
Format settings, Reference frames        : 4 frames
Codec ID                                 : V_MPEG4/ISO/AVC
Duration                                 : 1 h 40 min
Bit rate                                 : 3 401 kb/s
Width                                    : 1 918 pixels
Height                                   : 1 080 pixels
Display aspect ratio                     : 16:9
Frame rate mode                          : Constant
Frame rate                               : 23.976 (24000/1001) FPS
Color space                              : YUV
Chroma subsampling                       : 4:2:0
Bit depth                                : 8 bits
Scan type                                : Progressive
Bits/(Pixel*Frame)                       : 0.068
Stream size                              : 2.39 GiB (94%)
Writing library                          : x264 core 157 r2935 545de2f
Encoding settings                        : cabac=1 / ref=1 / deblock=1:0:0 / analyse=0x1:0x111 / me=hex / subme=2 / psy=1 / psy_rd=1.00:0.00 / mixed_ref=0 / me_range=16 / chroma_me=1 / trellis=0 / 8x8dct=0 / cqm=0 / deadzone=21,11 / fast_pskip=1 / chroma_qp_offset=0 / threads=24 / lookahead_threads=8 / sliced_threads=0 / nr=0 / decimate=1 / interlaced=0 / bluray_compat=0 / constrained_intra=0 / bframes=3 / b_pyramid=2 / b_adapt=1 / b_bias=0 / direct=1 / weightb=1 / open_gop=0 / weightp=1 / keyint=240 / keyint_min=24 / scenecut=40 / intra_refresh=0 / rc_lookahead=10 / rc=abr / mbtree=1 / bitrate=3401 / ratetol=1.0 / qcomp=0.60 / qpmin=0 / qpmax=69 / qpstep=4 / vbv_maxrate=20000 / vbv_bufsize=25000 / nal_hrd=none / filler=0 / ip_ratio=1.40 / aq=1:1.00
Default                                  : Yes
Forced                                   : No
Color range                              : Limited
Color primaries                          : BT.709
Transfer characteristics                 : BT.709
Matrix coefficients                      : BT.709

Audio
ID                                       : 3
Format                                   : AC-3
Format/Info                              : Audio Coding 3
Commercial name                          : Dolby Digital
Codec ID                                 : A_AC3
Duration                                 : 1 h 40 min
Bit rate mode                            : Constant
Bit rate                                 : 224 kb/s
Channel(s)                               : 2 channels
Channel layout                           : L R
Sampling rate                            : 48.0 kHz
Frame rate                               : 31.250 FPS (1536 SPF)
Compression mode                         : Lossy
Delay relative to video                  : -5 ms
Stream size                              : 161 MiB (6%)
Title                                    : Stereo
Language                                 : English
Service kind                             : Complete Main
Default                                  : Yes
Forced                                   : No

Text
ID                                       : 1
Format                                   : UTF-8
Codec ID                                 : S_TEXT/UTF8
Codec ID/Info                            : UTF-8 Plain Text
Duration                                 : 1 h 39 min
Bit rate                                 : 103 b/s
Count of elements                        : 1268
Stream size                              : 75.7 KiB (0%)
Title                                    : Greek
Default                                  : Yes
Forced                                   : No

image
image
ΑΝ ΘΕΛΕΤΕ ΝΑ ΣΤΗΡΙΞΕΤΕ ΤΗΝ ΔΟΥΛΕΙΑ ΜΟΥ
ΚΑΝΤΕ ΕΥΚΟΛΑ ΚΑΙ ΓΡΗΓΟΡΑ ΛΟΓΑΡΙΑΣΜΟ ΣΤΟ EASYBYTEZ KAI KATEΒΑΣΤΕ ΣΑΝ PREMIUM AΠO 20HOST!!
http://www.easybytez.com/free2771.html


http://www.easybytez.com/gunxzcz5frbx
http://www.easybytez.com/7zdcdvvg6nie
http://www.easybytez.com/1uooromp2lkl
http://www.easybytez.com/v5tu8yxfkt5p
http://www.easybytez.com/8vaat05v5u37
http://www.easybytez.com/0zhg3692mehv
http://www.easybytez.com/ub6iavs4u0a5
http://www.easybytez.com/wdncvi3ksf2g
http://www.easybytez.com/8iqon5i64oco
http://www.easybytez.com/n875lyq89beu
http://www.easybytez.com/a6zs2axavh0l
http://www.easybytez.com/gjajinpc1ahg
http://www.easybytez.com/qsi48h62ba3v
http://www.easybytez.com/q0xgv4ixevt3
http://www.easybytez.com/mqo2f0pgg3tc
http://www.easybytez.com/ku6vhvuym2ou
http://www.easybytez.com/mfhwe23am02y
http://www.easybytez.com/gqgrswouehka
http://www.easybytez.com/kz1hwf1iodp4
http://www.easybytez.com/0yt57pcldkmp
http://www.easybytez.com/czcddw4g1ka1
http://www.easybytez.com/kvmb5zaxnbz5
http://www.easybytez.com/ngskw8g2unwe
http://www.easybytez.com/i9zr81g8xs5z
http://www.easybytez.com/6xq51dgivg51
http://www.easybytez.com/rpnjfotp8lo4

image

https://rapidgator.net/file/a3b46648b90f73ec5f141edafc541e80
https://rapidgator.net/file/8d14d14730b5a47dc02652c68fbd2ff0
https://rapidgator.net/file/1a513bf81b68c9adf9bc40956321d45d
https://rapidgator.net/file/a235e01030a9b53dc5cb49f10578cf97
https://rapidgator.net/file/29bb1446de0299a3d329f0b25d2c3afd
https://rapidgator.net/file/6a11e31c2f3cd75faeba3347e7413ee4
https://rapidgator.net/file/b36ff4f6777c7834b86b634534db0445
https://rapidgator.net/file/b8ff7569fe16b4aaaae79e40063a3034
https://rapidgator.net/file/29416180aebe019b7e9610514453ad8a
https://rapidgator.net/file/f3521f8530ad1b3dae715017eda4a9f9
https://rapidgator.net/file/93a8acb170d2ba86cb6ca124813465d4
https://rapidgator.net/file/ad4763177b44a96beb6eb8929259413b
https://rapidgator.net/file/d0e42248e0243f4b6ac667def2ed8804
https://rapidgator.net/file/3663bb4df32a264beafc1f068b9fb66c
https://rapidgator.net/file/5cb1b1c2c194ee0d58134ca8faca5661
https://rapidgator.net/file/5f3db76d0b2fffbe393b890ab9f7711a
https://rapidgator.net/file/917e0e54d2c7e897f33e3fd51c7d70cf
https://rapidgator.net/file/ebb7c940077d793a02d138e1511dd8fe
https://rapidgator.net/file/7e16cf5e9d64a7074b07e0ce403ed93e
https://rapidgator.net/file/1365a8893543feffe72b57ef65c986d3
https://rapidgator.net/file/75a53c016ed4d2f79cce2d59a9102a6d
https://rapidgator.net/file/437d2be089b37cc2390780783c554292
https://rapidgator.net/file/eff4fd8d9942ba28e02370688e8962bc
https://rapidgator.net/file/7819bfcf6679e9e2239667167c3f3fd9
https://rapidgator.net/file/ba211cda3d2de76e0cf0c998b9344f25
https://rapidgator.net/file/42ae3966650d8bc4fe711bf28de368d3

Κωδικός Αποσυμπίεσης: Sexmeup

image