November 22, 2020 | Views: 1

Run (2020) 1080p Hulu WEB DL DDP5 1 H 264 Cmrg |…

image

image

Είδος Ταινίας: Horror, Mystery, Thriller
Πρεμιέρα: 20 November 2020 (USA)
Σκηνοθέτης: Aneesh Chaganty
Σενάριο: Aneesh Chaganty, Sev Ohanian
Ηθοποιοί: Sarah Paulson, Kiera Allen, Onalee Ames
Υπότιτλοι: Ελληνικοί Ενσωματωμένοι & Σε Ξεχωριστό Αρχείο
Μετάφραση: Feline, Starious, BlackMar, Fox, whizz Felisaki, Red Scorpion, StrangeLoop
Διάρκεια: 90'
Καταλληλότητα: image


image

Υπόθεση:

Ένα θρίλερ, σε σκηνοθεσία του Ανίς Τσαγκάντι, σε σενάριο των Τσαγκάντι και Σεβ Οχανιάν. Πρωταγωνιστούν οι Σάρα Πόλσον και Κίρα Άλεν. Η Πόλσον ενσαρκώνει μια μητέρα που μεγαλώνει την έφηβη κόρη της, σε απομόνωση, όμως η ζωή της θα πάρει άλλη τροπή, όταν ανακαλύπτει το σκοτεινό μυστικό της μητέρας της.

image

https://www.imdb.com/title/tt8633478/

image

image

image

https://www.youtube.com/watch?v=lf99oBP5mhQ&ab_channel=Hulu

TEXNIKA XAΡΑΚΤΗΡΙΣΤΙΚΑ

General
Unique ID                                : 246602947121767267153551134463184522637 (0xB98600018BDD574DAA5715CBD03ACD8D)
Complete name                            : C:UsersAdministratorDownloadsrun1080websexmeupRun.2020.1080p.HULU.WEB-DL.DDP5.1.H.264-CMRG.mkv
Format                                   : Matroska
Format version                           : Version 4
File size                                : 2.35 GiB
Duration                                 : 1 h 29 min
Overall bit rate                         : 3 765 kb/s
Movie name                               : .:Sexmeup:. Quality Uploads - encodes -
Encoded date                             : UTC 2020-11-21 23:34:35
Writing application                      : mkvmerge v37.0.0 ('Leave It') 64-bit
Writing library                          : libebml v1.3.9 + libmatroska v1.5.2

Video
ID                                       : 1
Format                                   : AVC
Format/Info                              : Advanced Video Codec
Format profile                           : High@L4
Format settings                          : CABAC / 4 Ref Frames
Format settings, CABAC                   : Yes
Format settings, Reference frames        : 4 frames
Codec ID                                 : V_MPEG4/ISO/AVC
Duration                                 : 1 h 29 min
Bit rate                                 : 3 507 kb/s
Width                                    : 1 920 pixels
Height                                   : 1 080 pixels
Display aspect ratio                     : 16:9
Frame rate mode                          : Constant
Frame rate                               : 23.976 (24000/1001) FPS
Color space                              : YUV
Chroma subsampling                       : 4:2:0
Bit depth                                : 8 bits
Scan type                                : Progressive
Bits/(Pixel*Frame)                       : 0.071
Stream size                              : 2.19 GiB (93%)
Default                                  : Yes
Forced                                   : No

Audio
ID                                       : 2
Format                                   : E-AC-3
Format/Info                              : Enhanced AC-3
Commercial name                          : Dolby Digital Plus
Codec ID                                 : A_EAC3
Duration                                 : 1 h 29 min
Bit rate mode                            : Constant
Bit rate                                 : 256 kb/s
Channel(s)                               : 6 channels
Channel layout                           : L R C LFE Ls Rs
Sampling rate                            : 48.0 kHz
Frame rate                               : 31.250 FPS (1536 SPF)
Compression mode                         : Lossy
Stream size                              : 164 MiB (7%)
Title                                    : English
Language                                 : English
Service kind                             : Complete Main
Default                                  : No
Forced                                   : No

Text #1
ID                                       : 3
Format                                   : UTF-8
Codec ID                                 : S_TEXT/UTF8
Codec ID/Info                            : UTF-8 Plain Text
Duration                                 : 1 h 24 min
Bit rate                                 : 27 b/s
Count of elements                        : 645
Stream size                              : 17.1 KiB (0%)
Title                                    : English
Language                                 : English
Default                                  : No
Forced                                   : No

Text #2
ID                                       : 4
Format                                   : UTF-8
Codec ID                                 : S_TEXT/UTF8
Codec ID/Info                            : UTF-8 Plain Text
Duration                                 : 1 h 24 min
Bit rate                                 : 28 b/s
Count of elements                        : 705
Stream size                              : 17.4 KiB (0%)
Title                                    : Spanish
Language                                 : Spanish
Default                                  : No
Forced                                   : No

Text #3
ID                                       : 5
Format                                   : UTF-8
Codec ID                                 : S_TEXT/UTF8
Codec ID/Info                            : UTF-8 Plain Text
Duration                                 : 1 h 24 min
Bit rate                                 : 46 b/s
Count of elements                        : 518
Stream size                              : 28.7 KiB (0%)
Title                                    : Greek
Language                                 : Rundi
Default                                  : Yes
Forced                                   : No

image
image
ΑΝ ΘΕΛΕΤΕ ΝΑ ΣΤΗΡΙΞΕΤΕ ΤΗΝ ΔΟΥΛΕΙΑ ΜΟΥ
ΚΑΝΤΕ ΕΥΚΟΛΑ ΚΑΙ ΓΡΗΓΟΡΑ ΛΟΓΑΡΙΑΣΜΟ ΣΤΟ EASYBYTEZ KAI KATEΒΑΣΤΕ ΣΑΝ PREMIUM AΠO 20HOST!!
http://www.easybytez.com/free2771.html


http://www.easybytez.com/k055e0uv1dgs
http://www.easybytez.com/h2v1lw6oxn5z
http://www.easybytez.com/pquuulug0tst
http://www.easybytez.com/yr6r34h0bfsr
http://www.easybytez.com/ud30y10t8wyd
http://www.easybytez.com/mj1tlkvpljsc
http://www.easybytez.com/2dxq2vni01hb
http://www.easybytez.com/iyxk3xfdg6be
http://www.easybytez.com/i7h8o0kwd7vs
http://www.easybytez.com/ljrxj7k1yyir

image

https://rapidgator.net/file/9beaae3cc26595b501c9fe7e189b5f32
https://rapidgator.net/file/7a8c357867789b7ba535f65e762c35a4
https://rapidgator.net/file/c228040d1b50bfc05a5d083ddcfb551e
https://rapidgator.net/file/764ae1425072652e92860c372f69a36b
https://rapidgator.net/file/4066ead626fb1c321c85a5c11a96f5a2
https://rapidgator.net/file/88da13255f5acb68b5493e013179b191
https://rapidgator.net/file/c16099777f338157a8642d9b306c4730
https://rapidgator.net/file/70aea986385bceb69a8e216fdffd5b64
https://rapidgator.net/file/dca3fa06bb550f3e9703ea5a10ddcccd
https://rapidgator.net/file/dc7d05defd40d183b79651318c169f11

Κωδικός Αποσυμπίεσης: Sexmeup

image