November 22, 2020 | Views: 1

Run (2020) WEB DL 720p 5 1 Ch Sexmeup 1 7 GB |…

image

image

Είδος Ταινίας: Horror, Mystery, Thriller
Πρεμιέρα: 20 November 2020 (USA)
Σκηνοθέτης: Aneesh Chaganty
Σενάριο: Aneesh Chaganty, Sev Ohanian
Ηθοποιοί: Sarah Paulson, Kiera Allen, Onalee Ames
Υπότιτλοι: Ελληνικοί Ενσωματωμένοι & Σε Ξεχωριστό Αρχείο
Μετάφραση: Feline, Starious, BlackMar, Fox, whizz Felisaki, Red Scorpion, StrangeLoop
Διάρκεια: 90'
Καταλληλότητα: image

-encoder: .:Sexmeup:.

Πηγή:
1080p.HULU.WEB-DL.DDP5.1.H.264-CMRG

image

Υπόθεση:

Ένα θρίλερ, σε σκηνοθεσία του Ανίς Τσαγκάντι, σε σενάριο των Τσαγκάντι και Σεβ Οχανιάν. Πρωταγωνιστούν οι Σάρα Πόλσον και Κίρα Άλεν. Η Πόλσον ενσαρκώνει μια μητέρα που μεγαλώνει την έφηβη κόρη της, σε απομόνωση, όμως η ζωή της θα πάρει άλλη τροπή, όταν ανακαλύπτει το σκοτεινό μυστικό της μητέρας της.

image

https://www.imdb.com/title/tt8633478/

image

image

image

https://www.youtube.com/watch?v=lf99oBP5mhQ&ab_channel=Hulu

TEXNIKA XAΡΑΚΤΗΡΙΣΤΙΚΑ

General
Unique ID                                : 245706052083398644190300567670747398485 (0xB8D943AAA2FBCFEE18C560770A958155)
Complete name                            : C:UsersAdministratorDownloadsrun720websexmeuprun720websexmeup.mkv
Format                                   : Matroska
Format version                           : Version 4
File size                                : 1.74 GiB
Duration                                 : 1 h 29 min
Overall bit rate                         : 2 786 kb/s
Movie name                               : .:Sexmeup:. Quality Uploads - encodes -
Encoded date                             : UTC 2020-11-22 00:05:14
Writing application                      : mkvmerge v37.0.0 ('Leave It') 64-bit
Writing library                          : libebml v1.3.9 + libmatroska v1.5.2

Video
ID                                       : 1
Format                                   : AVC
Format/Info                              : Advanced Video Codec
Format profile                           : Main@L4
Format settings                          : CABAC / 4 Ref Frames
Format settings, CABAC                   : Yes
Format settings, Reference frames        : 4 frames
Codec ID                                 : V_MPEG4/ISO/AVC
Duration                                 : 1 h 29 min
Bit rate                                 : 2 172 kb/s
Width                                    : 1 280 pixels
Height                                   : 536 pixels
Display aspect ratio                     : 2.40:1
Frame rate mode                          : Constant
Frame rate                               : 23.976 (24000/1001) FPS
Color space                              : YUV
Chroma subsampling                       : 4:2:0
Bit depth                                : 8 bits
Scan type                                : Progressive
Bits/(Pixel*Frame)                       : 0.132
Stream size                              : 1.34 GiB (77%)
Writing library                          : x264 core 157 r2935 545de2f
Encoding settings                        : cabac=1 / ref=1 / deblock=1:0:0 / analyse=0x1:0x111 / me=hex / subme=2 / psy=1 / psy_rd=1.00:0.00 / mixed_ref=0 / me_range=16 / chroma_me=1 / trellis=0 / 8x8dct=0 / cqm=0 / deadzone=21,11 / fast_pskip=1 / chroma_qp_offset=0 / threads=17 / lookahead_threads=4 / sliced_threads=0 / nr=0 / decimate=1 / interlaced=0 / bluray_compat=0 / constrained_intra=0 / bframes=3 / b_pyramid=2 / b_adapt=1 / b_bias=0 / direct=1 / weightb=1 / open_gop=0 / weightp=1 / keyint=240 / keyint_min=24 / scenecut=40 / intra_refresh=0 / rc_lookahead=10 / rc=abr / mbtree=1 / bitrate=2172 / ratetol=1.0 / qcomp=0.60 / qpmin=0 / qpmax=69 / qpstep=4 / vbv_maxrate=20000 / vbv_bufsize=25000 / nal_hrd=none / filler=0 / ip_ratio=1.40 / aq=1:1.00
Default                                  : Yes
Forced                                   : No
Color range                              : Limited
Color primaries                          : BT.709
Transfer characteristics                 : BT.709
Matrix coefficients                      : BT.709

Audio
ID                                       : 2
Format                                   : AC-3
Format/Info                              : Audio Coding 3
Commercial name                          : Dolby Digital
Codec ID                                 : A_AC3
Duration                                 : 1 h 29 min
Bit rate mode                            : Constant
Bit rate                                 : 640 kb/s
Channel(s)                               : 6 channels
Channel layout                           : L R C LFE Ls Rs
Sampling rate                            : 48.0 kHz
Frame rate                               : 31.250 FPS (1536 SPF)
Compression mode                         : Lossy
Delay relative to video                  : -5 ms
Stream size                              : 409 MiB (23%)
Title                                    : Surround
Language                                 : English
Service kind                             : Complete Main
Default                                  : Yes
Forced                                   : No

Text
ID                                       : 3
Format                                   : UTF-8
Codec ID                                 : S_TEXT/UTF8
Codec ID/Info                            : UTF-8 Plain Text
Duration                                 : 1 h 24 min
Bit rate                                 : 46 b/s
Count of elements                        : 518
Stream size                              : 28.7 KiB (0%)
Title                                    : Greek
Default                                  : Yes
Forced                                   : No

image
image
ΑΝ ΘΕΛΕΤΕ ΝΑ ΣΤΗΡΙΞΕΤΕ ΤΗΝ ΔΟΥΛΕΙΑ ΜΟΥ
ΚΑΝΤΕ ΕΥΚΟΛΑ ΚΑΙ ΓΡΗΓΟΡΑ ΛΟΓΑΡΙΑΣΜΟ ΣΤΟ EASYBYTEZ KAI KATEΒΑΣΤΕ ΣΑΝ PREMIUM AΠO 20HOST!!
http://www.easybytez.com/free2771.html


http://www.easybytez.com/w41x44ljngrr
http://www.easybytez.com/a453smxsk855
http://www.easybytez.com/fs1nzmeftaso
http://www.easybytez.com/sirrkfnfmovc
http://www.easybytez.com/qzkaswazg6z5
http://www.easybytez.com/m1q5gls507na
http://www.easybytez.com/jvoj5ith79qz
http://www.easybytez.com/0vk6p19j2eki

image

https://rapidgator.net/file/db6cc69d3171c6e1b9b985f083d7f12b
https://rapidgator.net/file/e00283b3bdd7f0ca78f055d6c87657f6
https://rapidgator.net/file/4f18d923d1a7a275f5e5a665be865b7e
https://rapidgator.net/file/a1e7e0a66dc81543e12a8bc63a6debb4
https://rapidgator.net/file/4fca3496698e933f86574b820076a370
https://rapidgator.net/file/af5cc7c7ef57caa96976257d7c6d755e
https://rapidgator.net/file/a8ef546c1def46ac7ddef5730a86b255
https://rapidgator.net/file/0fae53801beb21d6cb9147a9cb3bf83a

Κωδικός Αποσυμπίεσης: Sexmeup

image