February 10, 2021 | Views: 81330

The Misadventures Of Hedi And Cokeman (2021) WEB DL 720p 5 1 Ch…

image

image

Είδος Ταινίας: Action, Comedy, Crime
Πρεμιέρα: 10 February 2021 (France)
Σκηνοθέτης: Julien Hollande
Σενάριο: Julien Hollande, Nassim Lyes
Ηθοποιοί: Nassim Lyes, Fred Testot, Julie Ferrier
Υπότιτλοι: Ελληνικοί Ενσωματωμένοι & Σε Ξεχωριστό Αρχείο
Ελληνικός Τίτλος: Βρήκα τον Ντίλερ μου
Γνωστό και ως: En Passant Pecho: Les Carottes Sont Cuites
Μετάφραση: Εύα Ευμορφοπούλου
Διάρκεια: 99'
Καταλληλότητα:
image

-encoder: .:Sexmeup:.

Πηγή: FRENCH.1080p.WEB.x264-EXTREME

image

Υπόθεση:

Σε αυτήν την κωμωδία δύο δυσλειτουργικοί ντίλερ στο Παρίσι, χρησιμοποιούν τους οικογενειακούς δεσμούς για να ενισχύσουν μια μικρή επιχείρηση διακίνησης ναρκωτικών.

image

https://www.imdb.com/title/tt13669344/

image

image

image

https://www.youtube.com/watch?v=DIaVsAFaio8&ab_channel=NetflixFrance

TEXNIKA XAΡΑΚΤΗΡΙΣΤΙΚΑ

General
Unique ID                                : 69686054655194970284701680129395980160 (0x346D0BC28157F0F77C9168D681C8F780)
Complete name                            : C:UsersAdministratorDownloadsthemisadventuresofhediandcokeman720websexmeupthemisadventuresofhediandcokeman720websexmeup.mkv
Format                                   : Matroska
Format version                           : Version 4
File size                                : 1.94 GiB
Duration                                 : 1 h 39 min
Overall bit rate                         : 2 786 kb/s
Movie name                               : .:Sexmeup:. Quality Uploads - encodes -
Encoded date                             : UTC 2021-02-10 09:02:03
Writing application                      : mkvmerge v37.0.0 ('Leave It') 64-bit
Writing library                          : libebml v1.3.9 + libmatroska v1.5.2

Video
ID                                       : 1
Format                                   : AVC
Format/Info                              : Advanced Video Codec
Format profile                           : Main@L4
Format settings                          : CABAC / 4 Ref Frames
Format settings, CABAC                   : Yes
Format settings, Reference frames        : 4 frames
Codec ID                                 : V_MPEG4/ISO/AVC
Duration                                 : 1 h 39 min
Bit rate                                 : 2 170 kb/s
Width                                    : 1 280 pixels
Height                                   : 640 pixels
Display aspect ratio                     : 2.000
Frame rate mode                          : Constant
Frame rate                               : 25.000 FPS
Color space                              : YUV
Chroma subsampling                       : 4:2:0
Bit depth                                : 8 bits
Scan type                                : Progressive
Bits/(Pixel*Frame)                       : 0.106
Stream size                              : 1.45 GiB (75%)
Writing library                          : x264 core 157 r2935 545de2f
Encoding settings                        : cabac=1 / ref=1 / deblock=1:0:0 / analyse=0x1:0x111 / me=hex / subme=2 / psy=1 / psy_rd=1.00:0.00 / mixed_ref=0 / me_range=16 / chroma_me=1 / trellis=0 / 8x8dct=0 / cqm=0 / deadzone=21,11 / fast_pskip=1 / chroma_qp_offset=0 / threads=20 / lookahead_threads=5 / sliced_threads=0 / nr=0 / decimate=1 / interlaced=0 / bluray_compat=0 / constrained_intra=0 / bframes=3 / b_pyramid=2 / b_adapt=1 / b_bias=0 / direct=1 / weightb=1 / open_gop=0 / weightp=1 / keyint=250 / keyint_min=25 / scenecut=40 / intra_refresh=0 / rc_lookahead=10 / rc=abr / mbtree=1 / bitrate=2170 / ratetol=1.0 / qcomp=0.60 / qpmin=0 / qpmax=69 / qpstep=4 / vbv_maxrate=20000 / vbv_bufsize=25000 / nal_hrd=none / filler=0 / ip_ratio=1.40 / aq=1:1.00
Default                                  : Yes
Forced                                   : No
Color range                              : Limited
Color primaries                          : BT.709
Transfer characteristics                 : BT.709
Matrix coefficients                      : BT.709

Audio
ID                                       : 2
Format                                   : AC-3
Format/Info                              : Audio Coding 3
Commercial name                          : Dolby Digital
Codec ID                                 : A_AC3
Duration                                 : 1 h 39 min
Bit rate mode                            : Constant
Bit rate                                 : 640 kb/s
Channel(s)                               : 6 channels
Channel layout                           : L R C LFE Ls Rs
Sampling rate                            : 48.0 kHz
Frame rate                               : 31.250 FPS (1536 SPF)
Compression mode                         : Lossy
Delay relative to video                  : -10 ms
Stream size                              : 455 MiB (23%)
Title                                    : Surround
Language                                 : French
Service kind                             : Complete Main
Default                                  : Yes
Forced                                   : No

Text
ID                                       : 3
Format                                   : UTF-8
Codec ID                                 : S_TEXT/UTF8
Codec ID/Info                            : UTF-8 Plain Text
Title                                    : Greek
Default                                  : Yes
Forced                                   : No

image
image
ΑΝ ΘΕΛΕΤΕ ΝΑ ΣΤΗΡΙΞΕΤΕ ΤΗΝ ΔΟΥΛΕΙΑ ΜΟΥ
ΚΑΝΤΕ ΕΥΚΟΛΑ ΚΑΙ ΓΡΗΓΟΡΑ ΛΟΓΑΡΙΑΣΜΟ ΣΤΟ EASYBYTEZ KAI KATEΒΑΣΤΕ ΣΑΝ PREMIUM AΠO 20HOST!!
http://www.easybytez.com/free2771.html


http://www.easybytez.com/49f3mufgm3o5
http://www.easybytez.com/m22a5dw68q2d
http://www.easybytez.com/hbet7sc256z1
http://www.easybytez.com/pr9ieu5joijo
http://www.easybytez.com/v4ma4v1hm38j
http://www.easybytez.com/6yz9qfdm6z2b
http://www.easybytez.com/ch5dpg9rgxsv
http://www.easybytez.com/719xgjapc3oc

image

https://rapidgator.net/file/09d8e5756626073a34d24d0fafb01cc3
https://rapidgator.net/file/45e39e51ce3ef2cc1210d5d3fa637325
https://rapidgator.net/file/2db3f21bb2c030f065991a640c505032
https://rapidgator.net/file/c0d3edb7176f6cc8a7332956e6c0c979
https://rapidgator.net/file/4ecd80f1967d4ed28ab0876137c3f33e
https://rapidgator.net/file/ceda8bd420fb6abd7ef49d9047152b5f
https://rapidgator.net/file/6e7696f483366c9d15ff406b962f3898
https://rapidgator.net/file/87dc31aa90fe337abccae3771d1e8b15

Κωδικός Αποσυμπίεσης: Sexmeup

image